osu file format v14

[General]
AudioFilename: Bendera - Coklat Band .mp3
AudioLeadIn: 1500
PreviewTime: -1
Countdown: 1
SampleSet: Normal
StackLeniency: 0.6
Mode: 3
LetterboxInBreaks: 1
WidescreenStoryboard: 0

[Editor]
DistanceSpacing: 0.8
BeatDivisor: 6
GridSize: 4
TimelineZoom: 1

[Metadata]
Title:Bendera
TitleUnicode:Bendera
Artist:Cokelat
ArtistUnicode:Cokelat
Creator:King Of Legger
Version:Merdeka ! ! !
Source:[Heart and soul For My Indonesia][Lyric: @Nurlina Arfah][Beatmap By: King Of Legger][From: YouTube]
Tags:
BeatmapID:789307
BeatmapSetID:358972

[Difficulty]
HPDrainRate:5
CircleSize:4
OverallDifficulty:5
ApproachRate:5
SliderMultiplier:1.4
SliderTickRate:1

[Events]
//Background and Video events
0,0,"cr__merah_putih_by_bamboospear.jpg",0,0
Video,0,"Bendera - Coklat Band .avi",0,0
//Break Periods
//Storyboard Layer 0 (Background)
//Storyboard Layer 1 (Fail)
//Storyboard Layer 2 (Pass)
//Storyboard Layer 3 (Foreground)
//Storyboard Sound Samples

[TimingPoints]
0,387.096774193548,4,1,0,100,1,0

[Colours]
Combo1 : 238,121,251
Combo2 : 123,249,113

[HitObjects]
448,192,451,5,0,0:0:0:0:
320,192,451,1,0,0:0:0:0:
192,192,451,128,0,1354:0:0:0:0:
64,192,903,1,0,0:0:0:0:
320,192,1096,1,0,0:0:0:0:
448,192,1612,1,0,0:0:0:0:
320,192,1741,1,0,0:0:0:0:
192,192,2064,1,0,0:0:0:0:
64,192,2064,128,0,3032:0:0:0:0:
320,192,2451,1,0,0:0:0:0:
448,192,2580,1,0,0:0:0:0:
448,192,3161,1,0,0:0:0:0:
320,192,3354,1,0,0:0:0:0:
64,192,3548,128,0,4645:0:0:0:0:
192,192,3548,1,0,0:0:0:0:
192,192,3935,1,0,0:0:0:0:
320,192,4129,1,0,0:0:0:0:
192,192,4645,1,0,0:0:0:0:
320,192,4838,1,0,0:0:0:0:
320,192,5161,1,0,0:0:0:0:
448,192,5161,128,0,6193:0:0:0:0:
192,192,5483,1,0,0:0:0:0:
64,192,5677,1,0,0:0:0:0:
320,192,6322,1,0,0:0:0:0:
192,192,6451,1,0,0:0:0:0:
448,192,6645,1,0,0:0:0:0:
192,192,6774,1,0,0:0:0:0:
192,192,6967,1,0,0:0:0:0:
64,192,7225,1,0,0:0:0:0:
320,192,7483,128,0,9354:0:0:0:0:
448,192,7806,1,0,0:0:0:0:
192,192,7999,1,0,0:0:0:0:
64,192,8193,1,0,0:0:0:0:
192,192,8387,1,0,0:0:0:0:
192,192,8580,1,0,0:0:0:0:
448,192,8709,1,0,0:0:0:0:
192,192,9354,1,0,0:0:0:0:
64,192,9483,1,0,0:0:0:0:
192,192,9612,1,0,0:0:0:0:
448,192,9741,128,0,10838:0:0:0:0:
320,192,9741,1,0,0:0:0:0:
192,192,10064,1,0,0:0:0:0:
64,192,10258,1,0,0:0:0:0:
192,192,10838,1,0,0:0:0:0:
64,192,10838,128,0,12387:0:0:0:0:
320,192,11032,1,0,0:0:0:0:
448,192,11225,1,0,0:0:0:0:
320,192,11612,1,0,0:0:0:0:
192,192,11806,1,0,0:0:0:0:
320,192,11999,1,0,0:0:0:0:
448,192,12193,1,0,0:0:0:0:
320,192,12451,1,0,0:0:0:0:
192,192,12516,1,0,0:0:0:0:
448,192,12774,1,0,0:0:0:0:
320,192,12774,1,0,0:0:0:0:
448,192,13354,128,0,14322:0:0:0:0:
320,192,14322,128,0,14903:0:0:0:0:
192,192,14903,128,0,15870:0:0:0:0:
64,192,15870,128,0,16580:0:0:0:0:
192,192,16580,128,0,17225:0:0:0:0:
320,192,17225,128,0,17806:0:0:0:0:
448,192,17806,128,0,18967:0:0:0:0:
320,192,18967,128,0,19548:0:0:0:0:
192,192,19548,128,0,20322:0:0:0:0:
320,192,20322,128,0,20903:0:0:0:0:
192,192,20903,128,0,22064:0:0:0:0:
64,192,22064,128,0,22645:0:0:0:0:
192,192,22645,128,0,23612:0:0:0:0:
320,192,23612,128,0,24193:0:0:0:0:
192,192,24193,128,0,25354:0:0:0:0:
448,192,24580,1,0,0:0:0:0:
320,192,24967,1,0,0:0:0:0:
320,192,25354,1,0,0:0:0:0:
64,192,25741,1,0,0:0:0:0:
192,192,25741,1,0,0:0:0:0:
192,192,26129,1,0,0:0:0:0:
192,192,26322,1,0,0:0:0:0:
448,192,26516,1,0,0:0:0:0:
320,192,26516,1,0,0:0:0:0:
192,192,26709,1,0,0:0:0:0:
64,192,27096,1,0,0:0:0:0:
192,192,27096,1,0,0:0:0:0:
448,192,27225,1,0,0:0:0:0:
64,192,27612,1,0,0:0:0:0:
64,192,27806,1,0,0:0:0:0:
448,192,27999,1,0,0:0:0:0:
320,192,27999,1,0,0:0:0:0:
320,192,28322,1,0,0:0:0:0:
64,192,28451,1,0,0:0:0:0:
192,192,28451,1,0,0:0:0:0:
448,192,28838,1,0,0:0:0:0:
192,192,28838,1,0,0:0:0:0:
64,192,29161,1,0,0:0:0:0:
64,192,29354,1,0,0:0:0:0:
192,192,29548,1,0,0:0:0:0:
448,192,29548,1,0,0:0:0:0:
320,192,29741,1,0,0:0:0:0:
448,192,30129,1,0,0:0:0:0:
192,192,30322,1,0,0:0:0:0:
64,192,30322,1,0,0:0:0:0:
192,192,30709,1,0,0:0:0:0:
192,192,30967,1,0,0:0:0:0:
448,192,31096,1,0,0:0:0:0:
320,192,31096,1,0,0:0:0:0:
320,192,31419,1,0,0:0:0:0:
192,192,31483,1,0,0:0:0:0:
192,192,31870,1,0,0:0:0:0:
64,192,31870,1,0,0:0:0:0:
320,192,32193,1,0,0:0:0:0:
320,192,32387,1,0,0:0:0:0:
192,192,32645,1,0,0:0:0:0:
64,192,32645,1,0,0:0:0:0:
448,192,32838,1,0,0:0:0:0:
320,192,33225,1,0,0:0:0:0:
320,192,33419,1,0,0:0:0:0:
448,192,33419,1,0,0:0:0:0:
192,192,33806,1,0,0:0:0:0:
192,192,33999,1,0,0:0:0:0:
64,192,34193,1,0,0:0:0:0:
448,192,34387,1,0,0:0:0:0:
320,192,34451,1,0,0:0:0:0:
192,192,34516,1,0,0:0:0:0:
192,192,34967,1,0,0:0:0:0:
64,192,34967,1,0,0:0:0:0:
320,192,35290,1,0,0:0:0:0:
448,192,35483,1,0,0:0:0:0:
192,192,35677,1,0,0:0:0:0:
64,192,35677,1,0,0:0:0:0:
320,192,35870,1,0,0:0:0:0:
448,192,36258,1,0,0:0:0:0:
320,192,36258,1,0,0:0:0:0:
320,192,36451,1,0,0:0:0:0:
192,192,36516,1,0,0:0:0:0:
64,192,36645,1,0,0:0:0:0:
192,192,36709,1,0,0:0:0:0:
320,192,36774,1,0,0:0:0:0:
448,192,36838,1,0,0:0:0:0:
192,192,37032,128,0,37483:0:0:0:0:
64,192,37032,1,0,0:0:0:0:
448,192,37483,128,0,37870:0:0:0:0:
320,192,37483,1,0,0:0:0:0:
320,192,37870,1,0,0:0:0:0:
192,192,37999,1,0,0:0:0:0:
64,192,38387,1,0,0:0:0:0:
192,192,38580,1,0,0:0:0:0:
448,192,38709,1,0,0:0:0:0:
320,192,38709,1,0,0:0:0:0:
192,192,38903,1,0,0:0:0:0:
320,192,39354,1,0,0:0:0:0:
192,192,39548,1,0,0:0:0:0:
448,192,39548,1,0,0:0:0:0:
64,192,39935,1,0,0:0:0:0:
448,192,40129,1,0,0:0:0:0:
192,192,40322,1,0,0:0:0:0:
64,192,40322,1,0,0:0:0:0:
448,192,40645,1,0,0:0:0:0:
320,192,40709,1,0,0:0:0:0:
192,192,40774,1,0,0:0:0:0:
64,192,41096,1,0,0:0:0:0:
192,192,41096,1,0,0:0:0:0:
320,192,41354,1,0,0:0:0:0:
448,192,41483,1,0,0:0:0:0:
320,192,41677,1,0,0:0:0:0:
64,192,41870,1,0,0:0:0:0:
192,192,41870,1,0,0:0:0:0:
320,192,42064,1,0,0:0:0:0:
448,192,42387,1,0,0:0:0:0:
192,192,42580,1,0,0:0:0:0:
64,192,42580,1,0,0:0:0:0:
320,192,43032,1,0,0:0:0:0:
448,192,43225,1,0,0:0:0:0:
192,192,43354,1,0,0:0:0:0:
64,192,43354,1,0,0:0:0:0:
320,192,43806,1,0,0:0:0:0:
192,192,44129,1,0,0:0:0:0:
448,192,44129,1,0,0:0:0:0:
192,192,44580,1,0,0:0:0:0:
64,192,44774,1,0,0:0:0:0:
320,192,44903,1,0,0:0:0:0:
448,192,44903,1,0,0:0:0:0:
192,192,45161,1,0,0:0:0:0:
320,192,45483,1,0,0:0:0:0:
192,192,45677,1,0,0:0:0:0:
64,192,45677,1,0,0:0:0:0:
320,192,46064,1,0,0:0:0:0:
448,192,46258,1,0,0:0:0:0:
320,192,46451,1,0,0:0:0:0:
64,192,46451,1,0,0:0:0:0:
192,192,46709,1,0,0:0:0:0:
320,192,46774,1,0,0:0:0:0:
448,192,46838,1,0,0:0:0:0:
320,192,46903,1,0,0:0:0:0:
192,192,47225,1,0,0:0:0:0:
64,192,47225,1,0,0:0:0:0:
320,192,47612,1,0,0:0:0:0:
448,192,47806,1,0,0:0:0:0:
320,192,47999,1,0,0:0:0:0:
64,192,47999,1,0,0:0:0:0:
192,192,48580,1,0,0:0:0:0:
448,192,48580,1,0,0:0:0:0:
320,192,48774,1,0,0:0:0:0:
64,192,48774,1,0,0:0:0:0:
192,192,48967,1,0,0:0:0:0:
448,192,49161,1,0,0:0:0:0:
320,192,49161,1,0,0:0:0:0:
192,192,49354,1,0,0:0:0:0:
448,192,49548,1,0,0:0:0:0:
64,192,49548,128,0,50322:0:0:0:0:
320,192,49935,1,0,0:0:0:0:
192,192,50322,1,0,0:0:0:0:
320,192,50322,128,0,51290:0:0:0:0:
448,192,51290,128,0,51677:0:0:0:0:
320,192,51677,128,0,52838:0:0:0:0:
192,192,52838,128,0,53225:0:0:0:0:
320,192,53225,128,0,54387:0:0:0:0:
448,192,54387,128,0,54967:0:0:0:0:
320,192,54967,128,0,55548:0:0:0:0:
192,192,55548,1,0,0:0:0:0:
64,192,55548,1,0,0:0:0:0:
192,192,55935,1,0,0:0:0:0:
448,192,55935,1,0,0:0:0:0:
64,192,56258,1,0,0:0:0:0:
320,192,56451,1,0,0:0:0:0:
448,192,56451,1,0,0:0:0:0:
64,192,57032,1,0,0:0:0:0:
192,192,57225,1,0,0:0:0:0:
448,192,57225,1,0,0:0:0:0:
320,192,57419,1,0,0:0:0:0:
192,192,57612,1,0,0:0:0:0:
64,192,57806,1,0,0:0:0:0:
320,192,57999,1,0,0:0:0:0:
448,192,57999,1,0,0:0:0:0:
192,192,58387,1,0,0:0:0:0:
64,192,58580,1,0,0:0:0:0:
192,192,58774,1,0,0:0:0:0:
448,192,58774,1,0,0:0:0:0:
64,192,58967,1,0,0:0:0:0:
192,192,59032,1,0,0:0:0:0:
320,192,59096,1,0,0:0:0:0:
320,192,59548,1,0,0:0:0:0:
64,192,59548,1,0,0:0:0:0:
192,192,59935,1,0,0:0:0:0:
320,192,60129,1,0,0:0:0:0:
448,192,60322,1,0,0:0:0:0:
192,192,60322,1,0,0:0:0:0:
64,192,60516,1,0,0:0:0:0:
320,192,60903,1,0,0:0:0:0:
192,192,61096,1,0,0:0:0:0:
64,192,61096,1,0,0:0:0:0:
320,192,61483,1,0,0:0:0:0:
192,192,61677,1,0,0:0:0:0:
320,192,61870,1,0,0:0:0:0:
448,192,61870,1,0,0:0:0:0:
192,192,62064,1,0,0:0:0:0:
320,192,62129,1,0,0:0:0:0:
64,192,62258,1,0,0:0:0:0:
192,192,62645,1,0,0:0:0:0:
320,192,62645,1,0,0:0:0:0:
64,192,63032,1,0,0:0:0:0:
448,192,63225,1,0,0:0:0:0:
320,192,63419,1,0,0:0:0:0:
192,192,63419,1,0,0:0:0:0:
448,192,63677,1,0,0:0:0:0:
64,192,63999,1,0,0:0:0:0:
320,192,64193,1,0,0:0:0:0:
192,192,64193,1,0,0:0:0:0:
64,192,64580,1,0,0:0:0:0:
192,192,64774,1,0,0:0:0:0:
64,192,64967,1,0,0:0:0:0:
320,192,64967,1,0,0:0:0:0:
192,192,65161,1,0,0:0:0:0:
320,192,65225,1,0,0:0:0:0:
448,192,65290,1,0,0:0:0:0:
192,192,65741,1,0,0:0:0:0:
448,192,65741,1,0,0:0:0:0:
320,192,66129,1,0,0:0:0:0:
192,192,66322,1,0,0:0:0:0:
64,192,66516,1,0,0:0:0:0:
192,192,66516,1,0,0:0:0:0:
448,192,66709,1,0,0:0:0:0:
192,192,67096,1,0,0:0:0:0:
320,192,67290,1,0,0:0:0:0:
64,192,67290,1,0,0:0:0:0:
192,192,67677,1,0,0:0:0:0:
448,192,67870,1,0,0:0:0:0:
320,192,67935,1,0,0:0:0:0:
192,192,67999,1,0,0:0:0:0:
64,192,68064,1,0,0:0:0:0:
192,192,68129,1,0,0:0:0:0:
320,192,68193,1,0,0:0:0:0:
448,192,68258,1,0,0:0:0:0:
64,192,68387,1,0,0:0:0:0:
320,192,68774,1,0,0:0:0:0:
448,192,68774,1,0,0:0:0:0:
192,192,69161,1,0,0:0:0:0:
320,192,69354,1,0,0:0:0:0:
448,192,69548,1,0,0:0:0:0:
192,192,69548,1,0,0:0:0:0:
64,192,69741,1,0,0:0:0:0:
320,192,70129,1,0,0:0:0:0:
192,192,70387,1,0,0:0:0:0:
64,192,70387,1,0,0:0:0:0:
448,192,70774,1,0,0:0:0:0:
320,192,70903,1,0,0:0:0:0:
192,192,71096,1,0,0:0:0:0:
64,192,71096,1,0,0:0:0:0:
320,192,71290,1,0,0:0:0:0:
448,192,71483,1,0,0:0:0:0:
192,192,71870,1,0,0:0:0:0:
448,192,71870,1,0,0:0:0:0:
64,192,72258,1,0,0:0:0:0:
320,192,72451,1,0,0:0:0:0:
192,192,72645,1,0,0:0:0:0:
64,192,72645,1,0,0:0:0:0:
448,192,72838,1,0,0:0:0:0:
192,192,73225,1,0,0:0:0:0:
320,192,73419,1,0,0:0:0:0:
64,192,73419,1,0,0:0:0:0:
320,192,73806,1,0,0:0:0:0:
192,192,73999,1,0,0:0:0:0:
448,192,74193,1,0,0:0:0:0:
320,192,74193,1,0,0:0:0:0:
192,192,74387,1,0,0:0:0:0:
64,192,74516,1,0,0:0:0:0:
320,192,74967,1,0,0:0:0:0:
64,192,74967,1,0,0:0:0:0:
192,192,75290,1,0,0:0:0:0:
320,192,75548,1,0,0:0:0:0:
192,192,75741,1,0,0:0:0:0:
64,192,75741,1,0,0:0:0:0:
320,192,75935,1,0,0:0:0:0:
448,192,76258,1,0,0:0:0:0:
320,192,76516,1,0,0:0:0:0:
64,192,76516,1,0,0:0:0:0:
192,192,76903,1,0,0:0:0:0:
320,192,77096,1,0,0:0:0:0:
64,192,77225,1,0,0:0:0:0:
448,192,77225,1,0,0:0:0:0:
320,192,77419,1,0,0:0:0:0:
192,192,77612,1,0,0:0:0:0:
320,192,77999,1,0,0:0:0:0:
192,192,77999,1,0,0:0:0:0:
64,192,78645,1,0,0:0:0:0:
320,192,78645,1,0,0:0:0:0:
192,192,78838,1,0,0:0:0:0:
320,192,79032,1,0,0:0:0:0:
192,192,79354,1,0,0:0:0:0:
448,192,79354,1,0,0:0:0:0:
320,192,79548,1,0,0:0:0:0:
64,192,79741,1,0,0:0:0:0:
192,192,79935,1,0,0:0:0:0:
320,192,80129,1,0,0:0:0:0:
448,192,80322,1,0,0:0:0:0:
320,192,80516,1,0,0:0:0:0:
192,192,80709,1,0,0:0:0:0:
192,192,81290,1,0,0:0:0:0:
64,192,81290,1,0,0:0:0:0:
448,192,81483,1,0,0:0:0:0:
64,192,82064,1,0,0:0:0:0:
320,192,82064,1,0,0:0:0:0:
192,192,82258,1,0,0:0:0:0:
320,192,82451,1,0,0:0:0:0:
192,192,82838,1,0,0:0:0:0:
448,192,82838,1,0,0:0:0:0:
320,192,83032,1,0,0:0:0:0:
64,192,83612,1,0,0:0:0:0:
192,192,83806,1,0,0:0:0:0:
320,192,84387,1,0,0:0:0:0:
192,192,84387,1,0,0:0:0:0:
64,192,84580,1,0,0:0:0:0:
192,192,85161,1,0,0:0:0:0:
448,192,85161,1,0,0:0:0:0:
320,192,85354,1,0,0:0:0:0:
64,192,85548,128,0,86129:0:0:0:0:
320,192,85935,1,0,0:0:0:0:
192,192,86129,1,0,0:0:0:0:
320,192,86258,1,0,0:0:0:0:
448,192,86516,1,0,0:0:0:0:
192,192,86516,1,0,0:0:0:0:
64,192,86903,1,0,0:0:0:0:
320,192,87419,1,0,0:0:0:0:
192,192,87419,1,0,0:0:0:0:
448,192,87612,1,0,0:0:0:0:
320,192,88193,1,0,0:0:0:0:
64,192,88193,1,0,0:0:0:0:
192,192,88387,1,0,0:0:0:0:
320,192,88580,1,0,0:0:0:0:
192,192,88967,1,0,0:0:0:0:
64,192,89161,1,0,0:0:0:0:
320,192,89161,1,0,0:0:0:0:
192,192,89741,1,0,0:0:0:0:
448,192,89741,1,0,0:0:0:0:
320,192,89935,1,0,0:0:0:0:
64,192,90516,1,0,0:0:0:0:
192,192,90709,1,0,0:0:0:0:
448,192,90709,1,0,0:0:0:0:
320,192,91290,1,0,0:0:0:0:
320,192,91483,1,0,0:0:0:0:
192,192,91677,1,0,0:0:0:0:
320,192,92064,1,0,0:0:0:0:
448,192,92258,1,0,0:0:0:0:
192,192,92258,1,0,0:0:0:0:
192,192,92645,1,0,0:0:0:0:
64,192,92838,1,0,0:0:0:0:
320,192,93032,1,0,0:0:0:0:
192,192,93612,1,0,0:0:0:0:
448,192,93806,1,0,0:0:0:0:
320,192,93806,1,0,0:0:0:0:
192,192,94451,1,0,0:0:0:0:
64,192,94580,1,0,0:0:0:0:
320,192,94774,1,0,0:0:0:0:
192,192,95161,1,0,0:0:0:0:
64,192,95354,1,0,0:0:0:0:
320,192,95354,1,0,0:0:0:0:
448,192,95741,1,0,0:0:0:0:
192,192,96129,1,0,0:0:0:0:
64,192,96129,1,0,0:0:0:0:
192,192,96580,1,0,0:0:0:0:
448,192,96709,1,0,0:0:0:0:
320,192,96838,1,0,0:0:0:0:
64,192,97032,1,0,0:0:0:0:
320,192,97225,1,0,0:0:0:0:
448,192,97419,1,0,0:0:0:0:
192,192,97612,1,0,0:0:0:0:
64,192,97612,128,0,99290:0:0:0:0:
192,192,99290,1,0,0:0:0:0:
320,192,99290,1,0,0:0:0:0:
448,192,99612,1,0,0:0:0:0:
192,192,99870,1,0,0:0:0:0:
64,192,99935,1,0,0:0:0:0:
320,192,100129,1,0,0:0:0:0:
192,192,100387,1,0,0:0:0:0:
448,192,100516,1,0,0:0:0:0:
64,192,100903,1,0,0:0:0:0:
320,192,101096,1,0,0:0:0:0:
448,192,101354,1,0,0:0:0:0:
320,192,101419,1,0,0:0:0:0:
64,192,101612,1,0,0:0:0:0:
192,192,101870,1,0,0:0:0:0:
448,192,102064,1,0,0:0:0:0:
320,192,102258,1,0,0:0:0:0:
64,192,102645,1,0,0:0:0:0:
192,192,102645,1,0,0:0:0:0:
320,192,102903,1,0,0:0:0:0:
448,192,102967,1,0,0:0:0:0:
448,192,103225,1,0,0:0:0:0:
192,192,103419,1,0,0:0:0:0:
64,192,103612,1,0,0:0:0:0:
64,192,103935,1,0,0:0:0:0:
320,192,104129,1,0,0:0:0:0:
448,192,104451,1,0,0:0:0:0:
320,192,104580,1,0,0:0:0:0:
320,192,104774,1,0,0:0:0:0:
64,192,104903,1,0,0:0:0:0:
192,192,105161,1,0,0:0:0:0:
320,192,105290,1,0,0:0:0:0:
320,192,105677,1,0,0:0:0:0:
192,192,105677,1,0,0:0:0:0:
64,192,105999,1,0,0:0:0:0:
320,192,106064,1,0,0:0:0:0:
320,192,106258,1,0,0:0:0:0:
192,192,106451,1,0,0:0:0:0:
64,192,106645,1,0,0:0:0:0:
64,192,107032,1,0,0:0:0:0:
320,192,107225,1,0,0:0:0:0:
192,192,107548,1,0,0:0:0:0:
64,192,107612,1,0,0:0:0:0:
320,192,107806,1,0,0:0:0:0:
192,192,107999,1,0,0:0:0:0:
448,192,108193,1,0,0:0:0:0:
448,192,108387,1,0,0:0:0:0:
64,192,108774,1,0,0:0:0:0:
192,192,108774,1,0,0:0:0:0:
320,192,109096,1,0,0:0:0:0:
448,192,109161,1,0,0:0:0:0:
448,192,109354,1,0,0:0:0:0:
64,192,109548,1,0,0:0:0:0:
192,192,109741,1,0,0:0:0:0:
320,192,110129,1,0,0:0:0:0:
448,192,110129,1,0,0:0:0:0:
192,192,110322,1,0,0:0:0:0:
64,192,110645,1,0,0:0:0:0:
192,192,110709,1,0,0:0:0:0:
448,192,110903,1,0,0:0:0:0:
320,192,111096,1,0,0:0:0:0:
192,192,111161,1,0,0:0:0:0:
64,192,111225,1,0,0:0:0:0:
448,192,111290,1,0,0:0:0:0:
320,192,111354,1,0,0:0:0:0:
192,192,111419,1,0,0:0:0:0:
64,192,111870,1,0,0:0:0:0:
192,192,111870,1,0,0:0:0:0:
320,192,112193,1,0,0:0:0:0:
448,192,112258,1,0,0:0:0:0:
192,192,112451,1,0,0:0:0:0:
64,192,112645,1,0,0:0:0:0:
320,192,112645,1,0,0:0:0:0:
448,192,112838,1,0,0:0:0:0:
320,192,113225,1,0,0:0:0:0:
64,192,113419,1,0,0:0:0:0:
320,192,113741,1,0,0:0:0:0:
448,192,113806,1,0,0:0:0:0:
192,192,113999,1,0,0:0:0:0:
320,192,114193,1,0,0:0:0:0:
64,192,114387,1,0,0:0:0:0:
320,192,114580,1,0,0:0:0:0:
192,192,114967,1,0,0:0:0:0:
448,192,114967,1,0,0:0:0:0:
64,192,115225,1,0,0:0:0:0:
192,192,115354,1,0,0:0:0:0:
192,192,115548,1,0,0:0:0:0:
448,192,115677,1,0,0:0:0:0:
320,192,115935,1,0,0:0:0:0:
192,192,115935,1,0,0:0:0:0:
64,192,116322,1,0,0:0:0:0:
448,192,116516,1,0,0:0:0:0:
192,192,116774,1,0,0:0:0:0:
320,192,116903,1,0,0:0:0:0:
320,192,117096,1,0,0:0:0:0:
64,192,117290,1,0,0:0:0:0:
320,192,117612,1,0,0:0:0:0:
448,192,117612,1,0,0:0:0:0:
192,192,118064,1,0,0:0:0:0:
64,192,118322,1,0,0:0:0:0:
192,192,118387,1,0,0:0:0:0:
448,192,118645,1,0,0:0:0:0:
320,192,118774,1,0,0:0:0:0:
64,192,119032,1,0,0:0:0:0:
320,192,119354,1,0,0:0:0:0:
448,192,119354,1,0,0:0:0:0:
192,192,119612,1,0,0:0:0:0:
64,192,119870,1,0,0:0:0:0:
320,192,119999,1,0,0:0:0:0:
448,192,120129,1,0,0:0:0:0:
64,192,120322,1,0,0:0:0:0:
320,192,120516,1,0,0:0:0:0:
448,192,120709,1,0,0:0:0:0:
192,192,121096,1,0,0:0:0:0:
64,192,121096,1,0,0:0:0:0:
320,192,121419,1,0,0:0:0:0:
448,192,121483,1,0,0:0:0:0:
192,192,121677,1,0,0:0:0:0:
64,192,121870,1,0,0:0:0:0:
320,192,122064,1,0,0:0:0:0:
192,192,122451,1,0,0:0:0:0:
448,192,122451,1,0,0:0:0:0:
320,192,122645,1,0,0:0:0:0:
64,192,122903,1,0,0:0:0:0:
192,192,123032,1,0,0:0:0:0:
192,192,123225,1,0,0:0:0:0:
320,192,123419,1,0,0:0:0:0:
448,192,123612,1,0,0:0:0:0:
192,192,123806,1,0,0:0:0:0:
192,192,124387,1,0,0:0:0:0:
320,192,124387,1,0,0:0:0:0:
64,192,124580,1,0,0:0:0:0:
320,192,125161,1,0,0:0:0:0:
448,192,125354,1,0,0:0:0:0:
192,192,125548,1,0,0:0:0:0:
64,192,125741,1,0,0:0:0:0:
320,192,125935,1,0,0:0:0:0:
448,192,126129,1,0,0:0:0:0:
320,192,126709,1,0,0:0:0:0:
192,192,126903,1,0,0:0:0:0:
320,192,127419,1,0,0:0:0:0:
448,192,127612,1,0,0:0:0:0:
192,192,128193,1,0,0:0:0:0:
320,192,128387,1,0,0:0:0:0:
448,192,128580,1,0,0:0:0:0:
320,192,128967,1,0,0:0:0:0:
64,192,129161,1,0,0:0:0:0:
192,192,129354,1,0,0:0:0:0:
448,192,129548,1,0,0:0:0:0:
320,192,129741,1,0,0:0:0:0:
64,192,129935,1,0,0:0:0:0:
192,192,130516,1,0,0:0:0:0:
448,192,130709,1,0,0:0:0:0:
192,192,131290,1,0,0:0:0:0:
192,192,131483,1,0,0:0:0:0:
448,192,131677,1,0,0:0:0:0:
64,192,132064,1,0,0:0:0:0:
320,192,132258,1,0,0:0:0:0:
320,192,133032,1,0,0:0:0:0:
448,192,133032,1,0,0:0:0:0:
192,192,133548,1,0,0:0:0:0:
64,192,133548,1,0,0:0:0:0:
448,192,133806,1,0,0:0:0:0:
64,192,134580,1,0,0:0:0:0:
320,192,134580,1,0,0:0:0:0:
192,192,135161,1,0,0:0:0:0:
448,192,135161,1,0,0:0:0:0:
320,192,135161,128,0,136129:0:0:0:0:
64,192,135354,1,0,0:0:0:0:
192,192,136129,1,0,0:0:0:0:
64,192,136129,1,0,0:0:0:0:
64,192,136709,1,0,0:0:0:0:
320,192,136903,1,0,0:0:0:0:
192,192,136903,1,0,0:0:0:0:
64,192,137483,1,0,0:0:0:0:
320,192,137483,1,0,0:0:0:0:
192,192,137677,1,0,0:0:0:0:
320,192,137870,1,0,0:0:0:0:
320,192,138064,1,0,0:0:0:0:
448,192,138258,1,0,0:0:0:0:
64,192,138387,1,0,0:0:0:0:
192,192,138451,1,0,0:0:0:0:
320,192,138838,1,0,0:0:0:0:
192,192,138967,1,0,0:0:0:0:
64,192,139161,1,0,0:0:0:0:
320,192,139612,1,0,0:0:0:0:
448,192,139741,1,0,0:0:0:0:
192,192,139935,1,0,0:0:0:0:
64,192,139935,1,0,0:0:0:0:
320,192,140387,1,0,0:0:0:0:
320,192,140580,1,0,0:0:0:0:
64,192,140709,1,0,0:0:0:0:
320,192,140903,1,0,0:0:0:0:
448,192,140903,1,0,0:0:0:0:
64,192,141096,1,0,0:0:0:0:
448,192,141290,1,0,0:0:0:0:
320,192,141483,1,0,0:0:0:0:
192,192,141483,1,0,0:0:0:0:
448,192,141870,1,0,0:0:0:0:
64,192,142258,1,0,0:0:0:0:
192,192,142258,1,0,0:0:0:0:
448,192,142645,1,0,0:0:0:0:
320,192,142645,1,0,0:0:0:0:
64,192,142838,1,0,0:0:0:0:
320,192,143032,1,0,0:0:0:0:
192,192,143032,1,0,0:0:0:0:
320,192,143419,1,0,0:0:0:0:
320,192,143612,1,0,0:0:0:0:
64,192,143806,1,0,0:0:0:0:
320,192,143999,1,0,0:0:0:0:
64,192,144193,1,0,0:0:0:0:
448,192,144387,5,0,0:0:0:0:
320,192,144387,1,0,0:0:0:0:
192,192,144580,1,0,0:0:0:0:
64,192,144774,1,0,0:0:0:0:
320,192,144967,1,0,0:0:0:0:
448,192,144967,1,0,0:0:0:0:
192,192,145096,1,0,0:0:0:0:
448,192,145290,1,0,0:0:0:0:
64,192,145483,128,0,146129:0:0:0:0:
320,192,145741,1,0,0:0:0:0:
192,192,146129,128,0,147096:0:0:0:0:
320,192,146516,1,0,0:0:0:0:
448,192,146709,1,0,0:0:0:0:
64,192,146903,1,0,0:0:0:0:
320,192,147096,1,0,0:0:0:0:
448,192,147290,1,0,0:0:0:0:
320,192,147483,128,0,148064:0:0:0:0:
448,192,147806,1,0,0:0:0:0:
192,192,148064,128,0,148645:0:0:0:0:
64,192,148064,1,0,0:0:0:0:
448,192,148193,1,0,0:0:0:0:
320,192,148387,1,0,0:0:0:0:
64,192,148645,1,0,0:0:0:0:
320,192,148774,1,0,0:0:0:0:
64,192,149032,128,0,149612:0:0:0:0:
192,192,149354,1,0,0:0:0:0:
448,192,149548,1,0,0:0:0:0:
320,192,149612,128,0,150193:0:0:0:0:
192,192,149806,1,0,0:0:0:0:
192,192,150193,1,0,0:0:0:0:
64,192,150322,1,0,0:0:0:0:
320,192,150516,1,0,0:0:0:0:
192,192,150709,1,0,0:0:0:0:
448,192,150967,1,0,0:0:0:0:
320,192,151032,1,0,0:0:0:0:
192,192,151290,1,0,0:0:0:0:
320,192,151548,1,0,0:0:0:0:
64,192,151548,1,0,0:0:0:0:
192,192,151870,1,0,0:0:0:0:
448,192,152258,1,0,0:0:0:0:
320,192,152258,1,0,0:0:0:0:
192,192,152451,1,0,0:0:0:0:
64,192,152645,1,0,0:0:0:0:
320,192,152838,1,0,0:0:0:0:
192,192,153225,1,0,0:0:0:0:
448,192,153225,1,0,0:0:0:0:
320,192,153419,1,0,0:0:0:0:
64,192,153806,1,0,0:0:0:0:
192,192,153999,1,0,0:0:0:0:
320,192,154193,1,0,0:0:0:0:
448,192,154193,1,0,0:0:0:0:
448,192,154580,1,0,0:0:0:0:
320,192,154967,1,0,0:0:0:0:
64,192,154967,1,0,0:0:0:0:
192,192,155354,1,0,0:0:0:0:
320,192,155483,1,0,0:0:0:0:
192,192,155741,1,0,0:0:0:0:
448,192,155741,1,0,0:0:0:0:
320,192,155935,1,0,0:0:0:0:
64,192,156322,1,0,0:0:0:0:
448,192,156516,1,0,0:0:0:0:
320,192,156516,1,0,0:0:0:0:
192,192,156838,1,0,0:0:0:0:
448,192,157096,1,0,0:0:0:0:
192,192,157290,1,0,0:0:0:0:
64,192,157290,1,0,0:0:0:0:
320,192,157677,1,0,0:0:0:0:
192,192,158064,1,0,0:0:0:0:
448,192,158064,1,0,0:0:0:0:
320,192,158451,1,0,0:0:0:0:
192,192,158645,1,0,0:0:0:0:
320,192,158838,1,0,0:0:0:0:
448,192,158838,1,0,0:0:0:0:
64,192,159032,1,0,0:0:0:0:
192,192,159354,1,0,0:0:0:0:
320,192,159612,1,0,0:0:0:0:
448,192,159612,1,0,0:0:0:0:
192,192,159935,1,0,0:0:0:0:
320,192,160129,1,0,0:0:0:0:
64,192,160322,1,0,0:0:0:0:
192,192,160322,1,0,0:0:0:0:
320,192,160709,1,0,0:0:0:0:
192,192,161096,1,0,0:0:0:0:
448,192,161096,1,0,0:0:0:0:
320,192,161483,1,0,0:0:0:0:
64,192,161677,1,0,0:0:0:0:
320,192,161870,1,0,0:0:0:0:
448,192,161870,1,0,0:0:0:0:
192,192,162064,1,0,0:0:0:0:
64,192,162451,1,0,0:0:0:0:
320,192,162645,1,0,0:0:0:0:
448,192,162645,1,0,0:0:0:0:
192,192,162967,1,0,0:0:0:0:
64,192,163225,1,0,0:0:0:0:
192,192,163290,1,0,0:0:0:0:
320,192,163354,1,0,0:0:0:0:
448,192,163419,1,0,0:0:0:0:
320,192,163483,1,0,0:0:0:0:
192,192,163548,1,0,0:0:0:0:
64,192,163612,1,0,0:0:0:0:
448,192,163741,1,0,0:0:0:0:
64,192,164193,1,0,0:0:0:0:
320,192,164451,1,0,0:0:0:0:
448,192,164516,1,0,0:0:0:0:
192,192,164774,1,0,0:0:0:0:
64,192,164967,1,0,0:0:0:0:
320,192,165161,1,0,0:0:0:0:
448,192,165483,1,0,0:0:0:0:
192,192,165677,1,0,0:0:0:0:
64,192,165677,1,0,0:0:0:0:
320,192,165999,1,0,0:0:0:0:
448,192,166064,1,0,0:0:0:0:
448,192,166322,1,0,0:0:0:0:
64,192,166516,1,0,0:0:0:0:
320,192,166516,1,0,0:0:0:0:
192,192,166709,1,0,0:0:0:0:
320,192,166903,1,0,0:0:0:0:
448,192,167290,1,0,0:0:0:0:
192,192,167290,1,0,0:0:0:0:
64,192,167612,1,0,0:0:0:0:
192,192,167677,1,0,0:0:0:0:
192,192,167870,1,0,0:0:0:0:
320,192,168064,1,0,0:0:0:0:
448,192,168064,1,0,0:0:0:0:
64,192,168258,1,0,0:0:0:0:
320,192,168645,1,0,0:0:0:0:
192,192,168838,1,0,0:0:0:0:
448,192,168838,1,0,0:0:0:0:
64,192,169161,1,0,0:0:0:0:
320,192,169354,1,0,0:0:0:0:
192,192,169548,1,0,0:0:0:0:
64,192,169548,1,0,0:0:0:0:
448,192,169741,1,0,0:0:0:0:
192,192,169999,1,0,0:0:0:0:
64,192,170322,1,0,0:0:0:0:
320,192,170322,1,0,0:0:0:0:
192,192,170645,1,0,0:0:0:0:
448,192,170709,1,0,0:0:0:0:
448,192,170903,1,0,0:0:0:0:
64,192,171096,1,0,0:0:0:0:
192,192,171354,1,0,0:0:0:0:
192,192,171677,1,0,0:0:0:0:
448,192,171870,1,0,0:0:0:0:
64,192,172193,1,0,0:0:0:0:
192,192,172258,1,0,0:0:0:0:
192,192,172451,1,0,0:0:0:0:
448,192,172645,1,0,0:0:0:0:
320,192,172838,1,0,0:0:0:0:
320,192,173032,1,0,0:0:0:0:
64,192,173419,1,0,0:0:0:0:
448,192,173419,1,0,0:0:0:0:
320,192,173741,1,0,0:0:0:0:
192,192,173806,1,0,0:0:0:0:
192,192,173999,1,0,0:0:0:0:
448,192,174193,1,0,0:0:0:0:
192,192,174387,1,0,0:0:0:0:
192,192,174774,1,0,0:0:0:0:
64,192,174967,1,0,0:0:0:0:
320,192,174967,1,0,0:0:0:0:
448,192,175161,1,0,0:0:0:0:
192,192,175354,1,0,0:0:0:0:
64,192,175548,1,0,0:0:0:0:
320,192,175741,1,0,0:0:0:0:
448,192,175935,1,0,0:0:0:0:
448,192,176129,1,0,0:0:0:0:
192,192,176709,1,0,0:0:0:0:
64,192,176709,1,0,0:0:0:0:
320,192,176903,1,0,0:0:0:0:
448,192,176903,1,0,0:0:0:0:
192,192,177483,1,0,0:0:0:0:
64,192,177677,1,0,0:0:0:0:
320,192,177870,1,0,0:0:0:0:
192,192,178193,1,0,0:0:0:0:
448,192,178451,1,0,0:0:0:0:
64,192,178451,1,0,0:0:0:0:
320,192,178967,1,0,0:0:0:0:
192,192,179225,1,0,0:0:0:0:
192,192,179806,1,0,0:0:0:0:
320,192,179999,1,0,0:0:0:0:
64,192,179999,1,0,0:0:0:0:
192,192,180516,1,0,0:0:0:0:
320,192,180709,1,0,0:0:0:0:
448,192,180709,128,0,181483:0:0:0:0:
192,192,180903,1,0,0:0:0:0:
64,192,180967,1,0,0:0:0:0:
320,192,181290,1,0,0:0:0:0:
192,192,181483,1,0,0:0:0:0:
64,192,181677,1,0,0:0:0:0:
320,192,181870,1,0,0:0:0:0:
192,192,182064,1,0,0:0:0:0:
448,192,182258,1,0,0:0:0:0:
64,192,182838,1,0,0:0:0:0:
320,192,183032,1,0,0:0:0:0:
448,192,183032,1,0,0:0:0:0:
192,192,183612,1,0,0:0:0:0:
64,192,183806,1,0,0:0:0:0:
320,192,183999,1,0,0:0:0:0:
448,192,184387,1,0,0:0:0:0:
192,192,184580,1,0,0:0:0:0:
64,192,184580,1,0,0:0:0:0:
448,192,185161,1,0,0:0:0:0:
320,192,185354,1,0,0:0:0:0:
192,192,185354,1,0,0:0:0:0:
64,192,185935,1,0,0:0:0:0:
192,192,186129,1,0,0:0:0:0:
320,192,186129,1,0,0:0:0:0:
448,192,186709,1,0,0:0:0:0:
448,192,186903,1,0,0:0:0:0:
320,192,187096,1,0,0:0:0:0:
192,192,187483,1,0,0:0:0:0:
320,192,187677,1,0,0:0:0:0:
64,192,187677,1,0,0:0:0:0:
64,192,188387,1,0,0:0:0:0:
192,192,188387,1,0,0:0:0:0:
320,192,188967,1,0,0:0:0:0:
448,192,188967,1,0,0:0:0:0:
64,192,189161,1,0,0:0:0:0:
320,192,189741,1,0,0:0:0:0:
192,192,189741,1,0,0:0:0:0:
448,192,189935,1,0,0:0:0:0:
192,192,190516,1,0,0:0:0:0:
320,192,190709,1,0,0:0:0:0:
64,192,190709,1,0,0:0:0:0:
320,192,191419,128,0,193096:0:0:0:0:
64,192,191935,1,0,0:0:0:0:
192,192,192064,1,0,0:0:0:0:
192,192,192258,1,0,0:0:0:0:
192,192,192451,1,0,0:0:0:0:
448,192,192645,1,0,0:0:0:0:
64,192,192838,1,0,0:0:0:0:
192,192,193096,1,0,0:0:0:0:
192,192,193870,1,0,0:0:0:0:
320,192,193870,1,0,0:0:0:0:
448,192,194064,1,0,0:0:0:0:
64,192,194064,1,0,0:0:0:0:
320,192,194193,1,0,0:0:0:0:
192,192,194258,1,0,0:0:0:0:
448,192,194387,1,0,0:0:0:0:
192,192,194580,1,0,0:0:0:0:
64,192,194580,1,0,0:0:0:0:
320,192,195032,1,0,0:0:0:0:
192,192,195290,1,0,0:0:0:0:
64,192,195354,1,0,0:0:0:0:
448,192,195548,1,0,0:0:0:0:
192,192,195741,1,0,0:0:0:0:
64,192,195741,1,0,0:0:0:0:
320,192,195935,1,0,0:0:0:0:
192,192,196322,1,0,0:0:0:0:
64,192,196516,1,0,0:0:0:0:
320,192,196516,1,0,0:0:0:0:
64,192,196838,1,0,0:0:0:0:
192,192,196903,1,0,0:0:0:0:
192,192,197096,1,0,0:0:0:0:
448,192,197290,1,0,0:0:0:0:
320,192,197483,1,0,0:0:0:0:
320,192,197677,1,0,0:0:0:0:
320,192,198064,1,0,0:0:0:0:
448,192,198064,1,0,0:0:0:0:
192,192,198322,1,0,0:0:0:0:
320,192,198387,1,0,0:0:0:0:
320,192,198580,1,0,0:0:0:0:
64,192,198838,1,0,0:0:0:0:
192,192,198967,1,0,0:0:0:0:
64,192,199419,1,0,0:0:0:0:
192,192,199612,1,0,0:0:0:0:
448,192,199870,1,0,0:0:0:0:
320,192,199935,1,0,0:0:0:0:
320,192,200129,1,0,0:0:0:0:
64,192,200322,1,0,0:0:0:0:
192,192,200516,1,0,0:0:0:0:
192,192,200709,1,0,0:0:0:0:
320,192,201096,1,0,0:0:0:0:
448,192,201096,1,0,0:0:0:0:
192,192,201419,1,0,0:0:0:0:
320,192,201548,1,0,0:0:0:0:
320,192,201741,1,0,0:0:0:0:
64,192,201870,1,0,0:0:0:0:
192,192,202064,1,0,0:0:0:0:
448,192,202451,1,0,0:0:0:0:
320,192,202645,1,0,0:0:0:0:
448,192,202967,1,0,0:0:0:0:
320,192,203032,1,0,0:0:0:0:
320,192,203225,1,0,0:0:0:0:
64,192,203419,1,0,0:0:0:0:
192,192,203612,1,0,0:0:0:0:
192,192,203806,1,0,0:0:0:0:
320,192,204193,1,0,0:0:0:0:
192,192,204516,1,0,0:0:0:0:
64,192,204580,1,0,0:0:0:0:
64,192,204774,1,0,0:0:0:0:
320,192,204967,1,0,0:0:0:0:
448,192,205161,1,0,0:0:0:0:
320,192,205548,1,0,0:0:0:0:
192,192,205741,1,0,0:0:0:0:
320,192,206064,1,0,0:0:0:0:
192,192,206129,1,0,0:0:0:0:
192,192,206322,1,0,0:0:0:0:
320,192,206516,1,0,0:0:0:0:
448,192,206580,1,0,0:0:0:0:
320,192,206645,1,0,0:0:0:0:
192,192,206709,1,0,0:0:0:0:
64,192,206774,1,0,0:0:0:0:
320,192,206903,1,0,0:0:0:0:
64,192,207290,1,0,0:0:0:0:
320,192,207612,1,0,0:0:0:0:
192,192,207677,1,0,0:0:0:0:
192,192,207870,1,0,0:0:0:0:
448,192,207999,1,0,0:0:0:0:
320,192,208193,1,0,0:0:0:0:
64,192,208580,1,0,0:0:0:0:
320,192,208838,1,0,0:0:0:0:
64,192,209096,1,0,0:0:0:0:
192,192,209225,1,0,0:0:0:0:
192,192,209419,1,0,0:0:0:0:
448,192,209548,1,0,0:0:0:0:
320,192,209741,1,0,0:0:0:0:
320,192,209935,1,0,0:0:0:0:
448,192,210322,1,0,0:0:0:0:
64,192,210322,1,0,0:0:0:0:
320,192,210645,1,0,0:0:0:0:
192,192,210709,1,0,0:0:0:0:
192,192,210903,1,0,0:0:0:0:
448,192,211161,1,0,0:0:0:0:
320,192,211354,1,0,0:0:0:0:
64,192,211677,1,0,0:0:0:0:
192,192,211935,1,0,0:0:0:0:
448,192,212193,1,0,0:0:0:0:
320,192,212322,1,0,0:0:0:0:
320,192,212516,1,0,0:0:0:0:
64,192,212709,1,0,0:0:0:0:
192,192,212838,1,0,0:0:0:0:
192,192,213032,1,0,0:0:0:0:
448,192,213419,1,0,0:0:0:0:
320,192,213741,1,0,0:0:0:0:
192,192,213806,1,0,0:0:0:0:
192,192,213999,1,0,0:0:0:0:
448,192,214193,1,0,0:0:0:0:
320,192,214387,1,0,0:0:0:0:
64,192,214774,1,0,0:0:0:0:
192,192,214967,1,0,0:0:0:0:
448,192,215290,1,0,0:0:0:0:
320,192,215354,1,0,0:0:0:0:
320,192,215548,1,0,0:0:0:0:
192,192,215741,1,0,0:0:0:0:
64,192,215935,1,0,0:0:0:0:
192,192,216129,1,0,0:0:0:0:
448,192,216516,1,0,0:0:0:0:
192,192,216645,128,0,218322:0:0:0:0:
320,192,216774,1,0,0:0:0:0:
64,192,216903,1,0,0:0:0:0:
448,192,217096,1,0,0:0:0:0:
320,192,217290,1,0,0:0:0:0:
448,192,217483,1,0,0:0:0:0:
64,192,217870,1,0,0:0:0:0:
448,192,218064,1,0,0:0:0:0:
64,192,218322,1,0,0:0:0:0:
320,192,218451,1,0,0:0:0:0:
320,192,218580,1,0,0:0:0:0:
448,192,218774,1,0,0:0:0:0:
192,192,218967,1,0,0:0:0:0:
64,192,219225,1,0,0:0:0:0:
320,192,219806,1,0,0:0:0:0:
192,192,219806,1,0,0:0:0:0:
448,192,219999,1,0,0:0:0:0:
192,192,220580,1,0,0:0:0:0:
320,192,220580,1,0,0:0:0:0:
64,192,220774,1,0,0:0:0:0:
448,192,220967,1,0,0:0:0:0:
320,192,221354,1,0,0:0:0:0:
192,192,221548,1,0,0:0:0:0:
64,192,222064,1,0,0:0:0:0:
192,192,222064,1,0,0:0:0:0:
192,192,222258,1,0,0:0:0:0:
64,192,222258,1,0,0:0:0:0:
448,192,222903,1,0,0:0:0:0:
320,192,222903,1,0,0:0:0:0:
192,192,223096,1,0,0:0:0:0:
448,192,223612,1,0,0:0:0:0:
320,192,223612,1,0,0:0:0:0:
320,192,223806,1,0,0:0:0:0:
448,192,223806,1,0,0:0:0:0:
64,192,223999,1,0,0:0:0:0:
192,192,224387,1,0,0:0:0:0:
64,192,224387,1,0,0:0:0:0:
320,192,224580,1,0,0:0:0:0:
192,192,225161,1,0,0:0:0:0:
320,192,225161,1,0,0:0:0:0:
320,192,225354,1,0,0:0:0:0:
192,192,225354,1,0,0:0:0:0:
448,192,225935,1,0,0:0:0:0:
320,192,225935,1,0,0:0:0:0:
64,192,226129,1,0,0:0:0:0:
192,192,226129,1,0,0:0:0:0:
320,192,226709,1,0,0:0:0:0:
192,192,226709,1,0,0:0:0:0:
320,192,226903,1,0,0:0:0:0:
192,192,226903,1,0,0:0:0:0:
448,192,227096,1,0,0:0:0:0:
64,192,227483,1,0,0:0:0:0:
448,192,227677,1,0,0:0:0:0:
320,192,227741,1,0,0:0:0:0:
64,192,227870,1,0,0:0:0:0:
192,192,228064,1,0,0:0:0:0:
448,192,228258,1,0,0:0:0:0:
448,192,228451,1,0,0:0:0:0:
320,192,229032,1,0,0:0:0:0:
192,192,229032,1,0,0:0:0:0:
448,192,229225,1,0,0:0:0:0:
64,192,229741,1,0,0:0:0:0:
448,192,229741,1,0,0:0:0:0:
448,192,229999,1,0,0:0:0:0:
64,192,229999,1,0,0:0:0:0:
320,192,230193,1,0,0:0:0:0:
192,192,230516,1,0,0:0:0:0:
320,192,230709,1,0,0:0:0:0:
64,192,231290,1,0,0:0:0:0:
448,192,231290,1,0,0:0:0:0:
320,192,231483,1,0,0:0:0:0:
192,192,231483,1,0,0:0:0:0:
64,192,232064,1,0,0:0:0:0:
448,192,232064,1,0,0:0:0:0:
320,192,232322,1,0,0:0:0:0:
192,192,232838,1,0,0:0:0:0:
320,192,232838,1,0,0:0:0:0:
192,192,233032,1,0,0:0:0:0:
320,192,233032,1,0,0:0:0:0:
64,192,233612,1,0,0:0:0:0:
448,192,233806,1,0,0:0:0:0:
192,192,233806,1,0,0:0:0:0:
320,192,233999,1,0,0:0:0:0:
320,192,234193,1,0,0:0:0:0:
320,192,234387,1,0,0:0:0:0:
320,192,234580,1,0,0:0:0:0:
64,192,235161,1,0,0:0:0:0:
320,192,235354,1,0,0:0:0:0:
448,192,235354,1,0,0:0:0:0:
320,192,236129,1,0,0:0:0:0:
64,192,236129,1,0,0:0:0:0:
192,192,236322,1,0,0:0:0:0:
448,192,236516,1,0,0:0:0:0:
64,192,236709,1,0,0:0:0:0:
320,192,236903,1,0,0:0:0:0:
448,192,236967,1,0,0:0:0:0:
192,192,237096,1,0,0:0:0:0:
64,192,237290,1,0,0:0:0:0:
192,192,237354,1,0,0:0:0:0:
448,192,237483,1,0,0:0:0:0:
320,192,237741,1,0,0:0:0:0:
192,192,237870,1,0,0:0:0:0:
64,192,237870,128,0,239999:0:0:0:0:
192,192,239999,128,0,241548:0:0:0:0:
448,192,239999,128,0,241548:0:0:0:0:
320,192,241548,128,0,243096:0:0:0:0:
192,192,243096,128,0,244645:0:0:0:0:
